#TITLE:Turii;
#SUBTITLE:~Panta rhei~;
#ARTIST:Zektbach;
#TITLETRANSLIT:;
#SUBTITLETRANSLIT:;
#ARTISTTRANSLIT:;
#CREDIT:Tony;
#BANNER:Turii ~Panta rhei~.png;
#BACKGROUND:Turii ~Panta rhei~-bg.png;
#LYRICSPATH:;
#CDTITLE:turri.png;
#MUSIC:Turii ~Panta rhei~.ogg;
#OFFSET:0.470;
#SAMPLESTART:65.870;
#SAMPLELENGTH:12.000;
#SELECTABLE:YES;
#DISPLAYBPM:148.000;
#BPMS:0.000=148.000,99.000=296.000,99.660=74.000,100.000=148.000,203.000=296.000,203.660=74.000,204.000=148.000,212.000=74.000,228.000=148.000,260.000=74.000;
#STOPS:;
#BGCHANGES:-1.000=Turii ~Panta Rhei~.avi=1.000=1=0=1,
99999=-nosongbg-=1.000=0=0=0 // don't automatically add -songbackground-
;
// cache tags:
#FIRSTBEAT:4.000;
#LASTBEAT:281.000;
#SONGFILENAME:Songs/Music V.I.P ^_^/Turii ~Panta rehi~/Turii ~Panta rhei~.sm;
#HASMUSIC:1;
#HASBANNER:1;
#MUSICLENGTH:132.101;
// end cache tags

//---------------dance-single - Tony----------------
#NOTES:
     dance-single:
     Tony:
     Hard:
     12:
     1.000,1.000,1.000,0.961,1.000,833.000,216.000,127.000,0.000,101.000:
0000
0000
0000
0000
,
1210
0301
0010
0001
1000
0100
1000
0010
,
0100
0001
1000
0100
0001
0100
1000
0001
,
1010
0001
1000
0100
0001
0100
0010
0001
,
0010
0001
1000
0100
0002
0003
0020
0030
,
1021
0130
0001
2100
3010
0100
1012
0103
0010
0201
1300
0001
,
1110
0001
0010
1100
0001
0100
1001
0100
0010
1001
0100
0001
,
1120
1030
0100
0012
1003
0010
2101
3010
0001
1020
0130
0010
,
1101
0010
0100
1001
0010
0100
1011
0100
0010
0101
1000
0100
,
1021
0130
0001
2010
3100
0010
0102
0013
1000
0201
1300
0100
,
1011
0100
0001
1010
0100
0010
1101
0010
1000
0011
0100
0001
,
1210
0301
0100
1020
0031
0100
1012
0103
1000
0021
0130
0010
,
1101
0010
0001
1010
0100
0001
1110
0001
0010
1001
0100
0010
,
1102
0010
0100
0010
0103
1000
0001
0010
0101
1000
0001
0010
0100
1000
0100
1000
,
0020
1030
0100
0010
0100
0010
0001
0010
0101
0010
0100
1000
0001
0010
0100
1000
,
0101
1000
0100
0010
0001
1000
0100
0010
0001
0100
0001
0010
0101
0010
0100
1000
,
0022
0030
0000
0000
2000
0000
0000
0000
0000
0000
0000
0000
0000
0000
3000
0000
,
1103
0010
0100
0010
0100
0001
1000
0100
1010
0001
0100
0010
0100
0010
0001
0010
,
0102
1003
0100
0010
0100
0010
0001
0010
1000
0100
0010
0100
1001
0010
0100
1000
,
0010
1000
0100
0010
0001
1000
0100
0010
0001
0100
1000
0100
0010
0001
0010
0001
,
1200
0300
0000
0000
0200
0000
0000
0000
0000
0000
0000
0000
0000
0000
0000
0000
,
0311
1000
0100
1000
0100
0001
0010
0001
0010
0100
0010
0100
1000
0010
0100
0001
,
0110
1000
0010
1000
0100
1000
0010
1000
0101
0010
0001
0100
1010
0000
0000
0000
,
0011
1000
0100
1000
0100
0001
0010
0001
0010
0100
0010
0100
1000
0010
0100
0001
,
0110
1000
0010
1000
0100
1000
0010
1000
0101
0010
0001
0100
1010
0000
0000
0000
,
1201
1300
0210
0301
1210
0301
0210
0301
,
1120
0031
1020
0130
1021
1030
0120
0031
,
2101
3000
2000
3000
2010
3000
2000
3000
2101
3000
2000
3000
2100
3000
2010
3000
,
0121
1030
0201
0310
1021
0031
1201
1300
,
1012
0103
0102
0013
1012
1003
0012
1003
,
1210
0301
0210
1300
1201
0301
1002
0103
,
0102
1003
0210
0312
2013
3120
1032
2013
,
3210
0300
2000
3020
0132
0023
0230
1300
,
0111
0000
0010
0000
1001
0000
0010
0000
1000
0100
0010
0001
1010
0100
0010
0001
,
1110
0000
0001
0000
1010
0000
0100
0000
1001
0010
0100
0010
0100
1000
0100
0000
,
1001
0000
0010
0000
1101
0000
0001
0000
1010
0100
0010
1000
0011
0100
0010
0001
,
1110
0000
0100
0000
0011
0000
0100
0000
1001
0010
0100
0010
0100
0001
0010
0100
,
1011
0000
0010
0000
1001
0000
0100
0000
1001
0010
0100
1000
0001
0010
0100
1000
,
0111
0000
1000
0000
0101
0000
0010
0000
1011
0100
0010
1000
0001
0100
0010
1000
,
0111
0010
1101
1000
1110
0001
1011
0001
,
1101
0000
1000
0000
0111
0000
0010
0000
1111
0000
0110
0000
1111
0000
0010
0100
,
1011
0100
0001
0010
0101
1000
0100
0010
0101
0010
1000
0100
0011
0100
1000
0010
,
1001
0100
0010
0100
0011
1000
0010
1000
0011
0100
0010
0001
1010
0100
1000
0100
,
1010
0001
0010
0001
1100
0001
0010
0001
1100
0010
0100
0010
1001
0010
0100
0001
,
1010
0100
0010
0100
1010
0100
0001
0010
0101
0010
0001
1000
0101
1000
0100
0100
,
1011
0100
0001
0010
0101
1000
0100
0010
0101
0010
1000
0100
0011
0100
1000
0010
,
1001
0100
0010
0100
0011
1000
0010
1000
0011
0100
0010
0001
1010
0100
1000
0100
,
1010
0001
0010
0001
1100
0001
0010
0001
1100
0010
0100
0010
1001
0010
0100
0001
,
1010
0100
0010
0100
1010
0100
0001
0010
0101
0010
0001
1000
0101
1000
0100
0000
,
1101
0010
1000
0100
1001
0100
0010
0100
1010
0001
0010
0001
1010
0100
1000
0001
,
0110
1000
0100
1000
0101
0010
0001
0010
0101
0010
1000
0100
1011
0000
0000
0000
,
1101
0010
1000
0100
1001
0100
0010
0100
1010
0001
0010
0001
1010
0100
1000
0001
,
0110
1000
0100
1000
0101
0010
0001
0010
0101
0010
1000
0100
1011
0000
0010
0000
,
1000
0000
0000
0000
0100
0000
0000
0000
0010
0000
0000
0000
0001
0000
0000
0000
0010
0000
0000
0000
0100
0000
0000
0000
1000
0000
0000
0000
0001
0000
0000
0000
0100
0000
0000
0000
0010
0000
0000
0000
1000
0000
0000
0000
0001
0000
0000
0000
0020
0000
0000
0000
0000
0000
0000
0000
0000
0000
0000
0000
0000
0000
0000
0000
0000
0000
0000
0000
0000
0000
0000
0000
0030
0000
0000
0000
0000
0000
0000
0000
0000
0000
0000
0000
0000
0000
0000
0000
0000
0000
0000
0000
0000
0000
0000
0000
0200
0000
0000
0000
0000
0000
0300
0000
0000
0000
0000
0000
0000
0000
0000
0000
0000
0000
0000
0000
0000
0000
0000
0000
0001
0000
0000
0000
0000
0000
0000
0000
0000
0000
0000
0000
0000
0000
0000
0000
0000
0000
0000
0000
0000
0000
0000
0000
0100
0000
0000
0000
0000
0000
0000
0000
0000
0000
0000
0000
0000
0000
0000
0000
0000
0000
0000
0000
0000
0000
0000
0000
1000
0000
0000
0000
0000
0000
0000
0000
0000
0000
0000
0000
0000
0000
0000
0000
0000
0000
0000
0000
0000
0000
0000
0000
,
1001
0000
0000
0000
0100
0000
0000
0000
0010
0000
0000
0000
0100
0000
0000
0000
0010
0000
0000
0000
0001
0000
0000
0000
1000
0000
0000
0000
0100
0000
0000
0000
0010
0000
0000
0000
0100
0000
0000
0000
1000
0000
0000
0000
0001
0000
0000
0000
0020
0000
0000
0000
0000
0000
0000
0000
0000
0000
0000
0000
0000
0000
0000
0000
0000
0000
0000
0000
0000
0000
0000
0000
0000
0000
0000
0000
0000
0000
0000
0000
0000
0000
0000
0000
0030
0000
0000
0000
0000
0000
0000
0000
0000
0000
0000
0000
2002
0000
0000
0000
0000
0000
3203
0000
0000
0000
0000
0000
0320
0000
0000
0000
0000
0000
0030
0000
0000
0000
0000
0000
2010
0000
0000
0000
0000
0000
3200
0000
0000
0000
0000
0000
0302
0000
0000
0000
0000
0000
0003
0000
0000
0000
0000
0000
2000
0000
0000
0000
0000
0000
3020
0000
0000
0000
0000
0000
0032
0000
0000
0000
0000
0000
0003
0000
0000
0000
0000
0000
0200
0000
0000
0000
0000
0000
0320
0000
0000
0000
0000
0000
0032
0000
0000
0000
0000
0000
0003
0000
0000
0000
0000
0000
,
0102
0000
0000
0000
0000
0000
0000
0000
0000
0000
0000
0000
0003
0000
0000
0000
0000
0000
0000
0000
0000
0000
0000
0000
0010
0000
0000
0000
0000
0000
0000
0000
0000
0000
0000
0000
0000
0000
0000
0000
0000
0000
0000
0000
0000
0000
0000
0000
0201
0000
0010
0000
0300
0000
0000
0000
0000
0000
0000
0000
0000
0000
0000
0000
0000
0000
0000
0000
0000
0000
0000
0000
0001
0000
0000
0000
0010
0000
0000
0000
0100
0000
0000
0000
0001
0000
0000
0000
0010
0000
0000
0000
0100
0000
0000
0000
2001
0000
0000
0000
0000
0000
0000
0000
0000
0000
0000
0000
3000
0000
0000
0000
0000
0000
0000
0000
0000
0000
0000
0000
0100
0000
0000
0000
0000
0000
0000
0000
0000
0000
0000
0000
0000
0000
0000
0000
0000
0000
0000
0000
0000
0000
1000
0000
0102
0000
0010
0000
0003
0000
0000
0000
0000
0000
0000
0000
0000
0000
0000
0000
0000
0000
0000
0000
0000
0000
0000
0000
1000
0000
0000
0000
0100
0000
0000
0000
0010
0000
0000
0000
0001
0000
0000
0000
0010
0000
0000
0000
0100
0000
0000
0000
,
1002
0213
2310
3102
0213
1312
0000
0000
,
1023
0000
0130
0000
1021
0000
0130
0000
0012
1000
0103
0010
1001
0010
0100
0010
,
1102
0000
0013
0100
1002
0000
0103
0000
2101
0010
3100
1000
0102
0010
1003
0100
,
1011
0000
1000
0010
1100
0000
0010
0001
0110
0000
0101
0010
0100
0000
0110
1000
,
0111
0000
0001
0000
0120
0000
1032
0000
2113
0000
0001
3200
0001
0000
0321
0000
,
1200
0030
0000
0000
0000
0000
0000
0000
0001
0000
0000
0000
0000
0000
0000
0000
1011
0000
0000
0000
1000
0000
0000
0000
0310
0000
0000
0000
0100
0000
0000
0000
1011
0000
0000
0000
0100
0000
0000
0000
0010
0000
0000
0000
0001
0000
0000
0000
1010
0000
0000
0000
0100
0000
0000
0000
0010
0000
0000
0000
0001
0000
0000
0000
,
1110
0000
0100
0001
2110
0000
3120
0000
1231
0000
0001
0000
1312
0000
2013
0000
,
3121
0000
2101
0031
0112
3010
1200
0003
,
1021
0000
0001
1000
0001
0000
2302
0000
0000
0000
3133
0000
1101
0000
0010
0000
,
1211
0000
0000
0300
0001
0000
0000
0000
0001
0000
0001
0000
0001
0000
0000
0000
0001
0000
0000
0000
0001
0000
0000
0000
0010
0000
0000
0000
0010
0000
0000
0000
0010
0000
0010
0000
0010
0000
0000
0000
0100
0000
0000
0000
0010
0000
0000
0000
,
1121
0000
0000
0030
1000
0000
0000
0000
1000
0000
1000
0000
1000
0000
0000
0000
1000
0000
0000
0000
1000
0000
0000
0000
0100
0000
0000
0000
0100
0000
0000
0000
0100
0000
0100
0000
0100
0000
0000
0000
0010
0000
0000
0000
0010
0000
0000
0000
,
1201
0000
0000
0300
0010
0000
0000
0000
0010
0000
0010
0000
0010
0000
0000
0000
0010
0000
0000
0000
0010
0000
0000
0000
1000
0000
0000
0000
1000
0000
0000
0000
1000
0000
1000
0000
1000
0000
0000
0000
0100
0000
0000
0000
0001
0000
0000
0000
,
1120
0000
0000
0030
0100
0000
0000
0000
0100
0000
0100
0000
0100
0000
0000
0000
0010
0000
0000
0000
0010
0000
0000
0000
1000
0000
0000
0000
0010
0000
0000
0000
0100
0000
0010
0000
0001
0000
0010
0000
0100
0000
1000
0000
0100
0000
0010
0000
,
2222
0000
0000
0000
0000
0000
3000
0300
,
0003
0030
0000
0000
;
